Skip to main content

Strangefolk Live at The Asylum on 1997-09-12




Set 1

1. Whisky River
2. Neighbor
3. Sidestep Blue
4. Lines and Circles
5. Near & Far
6. Mama
7. Westerly
8. Rather Go Fishin'

Set 2

1. New Glock II
2. Roads
3. So Far Gone
4. Angel From Montgomery
5. Rachel
6. All The Same
7. Walnut
8. Who I Am
9. Poland
10. Encore Break

Encore:


Collection Strangefolk
Band/Artist Strangefolk
Venue The Asylum
Location Portland, ME

Source DSBD (48.0) > DA-P1
Lineage Tascam DA-20 MKII > Tascam HD-P2 > Sony Soundforge 8.0 (44.1) > CD Wave > Flac
Taped by Unknown
Transferred by Patrick Price

Notes

Shntool Output:

length expanded size cdr WAVE problems fmt ratio filename
3:09.20 33386684 B --- -- ---xx flac 0.5113 sf1997-09-12s1t01.flac
9:31.15 100759724 B --- -- ---xx flac 0.5221 sf1997-09-12s1t02.flac
2:48.70 29799884 B --- -- ---xx flac 0.5095 sf1997-09-12s1t03.flac
12:31.07 132492908 B --- -- ---xx flac 0.4991 sf1997-09-12s1t04.flac
4:56.48 52327340 B --- -- ---xx flac 0.5384 sf1997-09-12s1t05.flac
11:34.42 122520428 B --- -- ---xx flac 0.5487 sf1997-09-12s1t06.flac
5:49.27 61627148 B --- -- ---xx flac 0.5379 sf1997-09-12s1t07.flac
5:45.14 60890972 B --- -- ---xx flac 0.5328 sf1997-09-12s1t08.flac
5:38.29 59691452 B --- -- ---xx flac 0.4949 sf1997-09-12s2t01.flac
4:32.31 48053756 B --- -- ---xx flac 0.4923 sf1997-09-12s2t02.flac
18:33.73 196504940 B --- -- ---xx flac 0.5281 sf1997-09-12s2t03.flac
3:44.08 39532460 B --- -- ---xx flac 0.4931 sf1997-09-12s2t04.flac
4:39.67 49373228 B --- -- ---xx flac 0.5243 sf1997-09-12s2t05.flac
3:59.73 42331340 B --- -- ---xx flac 0.5678 sf1997-09-12s2t06.flac
8:54.70 94362284 B --- -- ---xx flac 0.5589 sf1997-09-12s2t07.flac
5:33.48 58854140 B --- -- ---xx flac 0.4980 sf1997-09-12s2t08.flac
7:11.48 76141340 B --- -- ---xx flac 0.5661 sf1997-09-12s2t09.flac
2:21.56 25004156 B --- -- ---xx flac 0.4149 sf1997-09-12s2t10.flac
14:20.47 151814588 B --- -- ---xx flac 0.5570 sf1997-09-12s2t11.flac
135:37.43 1435468772 B 0.5284 (19 files)

Reviews

Reviewer: chasingwilma - - November 10, 2011
Subject: pat price is the man
pat you are the master of the old school strangefolk uploads........and you were right.....you know what i am talking about.....better before than after
PEOPLE ALSO FOUND
Strangefolk
by Strangefolk
58
0
0
Source: DSBD > DA-P1 (48.0)
Strangefolk
by Strangefolk
162
0
1
( 1 reviews )
Source: DSBD
Strangefolk
by Strangefolk
42
0
0
Source: AKG 451/CK1 > D5 Preamp > Sony D-8 (44.1)
Strangefolk
by Strangefolk
51
0
0
Source: DSBD
Strangefolk
by Strangefolk
58
0
0
Source: DSBD (44.1)
Strangefolk
by Strangefolk
39
0
0
Source: Schoeps MK41 > VMS > SBM-1 > M1
Strangefolk
by Strangefolk
30
0
0
Source: Neumann KM-140 > Sanosax > DA-P1 (44.1)
Strangefolk
by Strangefolk
44
0
0
Source: Sinnheiser 421 > D-8
Strangefolk
by Strangefolk
162
0
0
Source: DSBD (48.0)
Strangefolk
by Strangefolk
59
0
0
Source: SBD > DA-P1 (44.1)